[Login] or [Signup]
Login
Username:
Password:
[Signup]
[Recover Account]


Poll


You must be logged in to view polls



Torrent Details For " Lorai - Play to Live (Bengali Movie) - 2CD - HDTV Rip[Mp4 - AC3(2Ch)]"

Lorai - Play to Live (Bengali Movie) - 2CD - HDTV Rip[Mp4 - AC3(2Ch)]

Download this torrent | Magnet Download
Health:
Seeds: 0
Leechers: 13
Completed: 11 
Last Checked: 19-09-2017 23:51:41
External Torrent
Update Stats
Download Magnet


Poster


iMDB
Imdb Picture Title: Lorai: Play to Live
Year: 2015
Votes: 57
Rating: 7.3/10
Language: Bengali
Country: India
All Genres: Drama
Plot Outline: Sports minister of Westbengal sends an alcoholic retired football player (Prasenjit Chatterjee) to a politically disturbed (by Maoist activities) village of Purulia to setup a football team...
Tagline: Story by Sabir Hossain Molla
Director: Parambrata Chatterjee
Writing By: Parambrata Chatterjee,Padmanabha Dasgupta,
Produced By: Shyam Sundar De,Arijit Dutta,Sarathi Guha,
Music: Indraadip Dasgupta
Plot:

Sports minister of Westbengal sends an alcoholic retired football player (Prasenjit Chatterjee) to a politically disturbed (by Maoist activities) village of Purulia to setup a football team. The intention was to build a good activity among the poor villagers and turn their attention to football. One day, the coach is kidnapped by the Maoist (leader Parambroto Chatterjee) and rescued later. Coach decides to stay back with the villagers and teach them football, however, the ministry decides to stop the football project and the cold fight begins between the sports minister and the football coach. Sports minister decided to organize a football match between the village team vs Kolkata akadosh. If the village team could perform well government would retain the project. In the match village team perform in a extraordinary way and able to retain the project.

- Written by Prasun Sarkar
Cast:
Prasenjit Chatterjee as Sebastian Ryan
Payel Sarkar as Anuradha
Indrasish Roy as Deep Narayan Chowdhury
Koushik Kar as Chipla
Kanchan Mullick as


Watch-Free-HD     Download

Details
Name: Lorai - Play to Live (Bengali Movie) - 2CD - HDTV Rip[Mp4 - AC3(2Ch)]
Description:
  Lorai - Play to Live (Bengali Movie) -
2CD - HDTV Rip[Mp4 - AC3(2Ch)]  
 






General
Format                                   : MPEG-4
Format profile                           : Base Media
Codec ID                                 : isom (isom)
File size                                : 1.40 GiB
Duration                                 : 3 h 4 min

Video
ID                                       : 1
Format                                   : AVC
Format/Info                              : Advanced Video Codec
Format profile                           : [email protected]
Format settings, CABAC                   : Yes
Format settings, RefFrames               : 4 frames
Codec ID                                 : avc1
Codec ID/Info                            : Advanced Video Coding
Duration                                 : 3 h 4 min
Bit rate                                 : 898 kb/s
Maximum bit rate                         : 5 210 kb/s
Width                                    : 720 pixels
Height                                   : 304 pixels
Display aspect ratio                     : 2.35:1
Frame rate mode                          : Constant
Frame rate                               : 25.000 FPS
Color space                              : YUV
Chroma subsampling                       : 4:2:0
Bit depth                                : 8 bits
Scan type                                : Progressive
Bits/(Pixel*Frame)                       : 0.164
Stream size                              : 1.15 GiB (82%)

Audio
ID                                       : 2
Format                                   : AC-3
Format/Info                              : Audio Coding 3
Format settings, Endianness              : Big
Codec ID                                 : ac-3
Duration                                 : 3 h 4 min
Bit rate mode                            : Constant
Bit rate                                 : 192 kb/s
Maximum bit rate                         : 203 kb/s
Channel(s)                               : 2 channels
Channel positions                        : Front: L R
Sampling rate                            : 48.0 kHz
Stream size                              : 253 MiB (18%)

Thumbnail





Category:Movies > Bengali
Lang:Bengali  Bengali
Total Size:1.41 GB
Info Hash:e20122f93754f014c0a70346eb0b38ed09094c21
Added By:Pherarim
Date Added:25-08-2017 06:27:30
Views:391
Hits:107

Download Torrent

Ratings:Not Yet Rated (Log in to rate it)


Tracker:
udp://9.rarbg.me:2710/announce


File List: 


Comments

No comments still posted

Powered by 10 Hamsters v2-svn -|- Page Generated In 1.685855 secs.
-|- RSS FEED
Theme By: Nikkbu